Агенты А.Н.К.Л. / The Man from U.N.C.L.E. (2015) WEB-DL 1080p | A

 
Автор Сообщение

BOSS ®

Пол:

Стаж: 2 года 8 месяцев

Сообщений: 5907

Откуда: ODESSA



Награды: 20 (Подробнее)

За внесенный вклад в развитие сайта (Количество: 1) Top Seeder 2 (Количество: 1) Top Keeper 4 (Количество: 1)
Торрент-статистика

Создавать темы 31-Окт-2015 20:23

[Цитировать]

Информация о фильме
Название: Агенты А.Н.К.Л.
Оригинальное название: The Man from U.N.C.L.E.
Год выхода: 2015
Жанр: боевик, комедия, приключения
Режиссер: Гай Ричи
В ролях: Генри Кавилл, Арми Хаммер, Алисия Викандер, Элизабет Дебики, Хью Грант, Лука Кальвани, Сильвестр Грот, Джаред Харрис, Кристиан Беркель, Миша Кузнецов
О фильме:
Наполеон Соло — агент ЦРУ, на счету которого огромное количество успешно проведенных операций. Он считается одним из лучших секретных агентов во всем мире, и с ним может сравниться только один человек — самый молодой и перспективный агент КГБ, Илья Курякин. Их противостояние переросло в настоящую войну, в которой никто не собирается уступать. Однако обстоятельства складываются так, что непримиримые враги вынуждены стать напарниками. Это происходит после того как спецслужбы двух стран обнаруживают международную преступную организацию, которой удалось создать ядерную бомбу…
Страна: США, Великобритания
Студия: Warner Bros. Pictures
Продолжительность: 01:56:26
Перевод: Авторский (одноголосый, закадровый) Алексей Матвеев
Релиз:
Файл
Формат: Matroska
Видео: 1912x792 at 23.976 fps, MPEG-4 AVC ~4300 kbps avg
Аудио: Russian: 48 kHz, AC3, 3/2 (L,C,R,l,r) + LFE ch, ~384.00 kbps avg |Авторский, А.Матвеев|
Субтитры: None

MI

General
Unique ID : 177274020593849383745338162600970273717 (0x855DBC05B9AE6048828DBF2B978BC3B5)
Complete name : AgeHtY.AHKL.2015.A1.WEB-DL.1080p.mkv
Format : Matroska
Format version : Version 4 / Version 2
File size : 3.94 GiB
Duration : 1h 56mn
Overall bit rate : 4 844 Kbps
Encoded date : UTC 2015-10-31 16:09:31
Writing application : mkvmerge v8.2.0 ('World of Adventure') 32bit
Writing library : libebml v1.3.1 + libmatroska v1.4.2
Video
ID : 1
Format : AVC
Format/Info : Advanced Video Codec
Format profile : High@L4
Format settings, CABAC : Yes
Format settings, ReFrames : 5 frames
Codec ID : V_MPEG4/ISO/AVC
Duration : 1h 56mn
Bit rate : 4 363 Kbps
Width : 1 912 pixels
Height : 792 pixels
Display aspect ratio : 2.40:1
Frame rate mode : Constant
Frame rate : 23.976 fps
Color space : YUV
Chroma subsampling : 4:2:0
Bit depth : 8 bits
Scan type : Progressive
Bits/(Pixel*Frame) : 0.120
Stream size : 3.55 GiB (90%)
Language : English
Default : Yes
Forced : No
Color range : Limited
Color primaries : BT.709
Transfer characteristics : BT.709
Matrix coefficients : BT.709
Audio
ID : 2
Format : AC-3
Format/Info : Audio Coding 3
Mode extension : CM (complete main)
Format settings, Endianness : Big
Codec ID : A_AC3
Duration : 1h 56mn
Bit rate mode : Constant
Bit rate : 384 Kbps
Channel(s) : 6 channels
Channel positions : Front: L C R, Side: L R, LFE
Sampling rate : 48.0 KHz
Compression mode : Lossy
Stream size : 320 MiB (8%)
Default : Yes
Forced : Yes
Menu
00:00:00.000 : en:1
00:15:18.000 : en:2
00:23:10.000 : en:3
00:32:08.000 : en:4
00:40:34.000 : en:5
00:49:06.000 : en:6
00:59:22.000 : en:7
01:08:51.000 : en:8
01:20:27.000 : en:9
01:29:46.000 : en:10
01:43:20.000 : en:11
01:49:22.000 : en:12

Скриншоты


[Профиль] [ЛС]
Показать сообщения:    

Текущее время: Сегодня 12:13

Часовой пояс: GMT



Вы не можете начинать темы
Вы не можете отвечать на сообщения
Вы не можете редактировать свои сообщения
Вы не можете удалять свои сообщения
Вы не можете голосовать в опросах
Вы не можете прикреплять файлы к сообщениям
Вы не можете скачивать файлы