Авторадио: Большая Дискотека 80-х (полная версия) [2014 г., WEB-DLRip 720p]

 
Автор Сообщение

sergej644 ®

Пол:

Стаж: 4 года 11 месяцев

Сообщений: 6046

Откуда: Soviet Union



Награды: Нет

Торрент-статистика

Создавать темы 04-Дек-2014 20:08

[Цитировать]

--Название: Авторадио: Большая Дискотека 80-х
Год выпуска: 29.11.2014
Жанр: Концерт, музыка
Выпущено: Россия, Авторадио, Первый канал
О концерте: Главное музыкальное событие осени - XIII международный музыкальный фестиваль «Авторадио» «Дискотека 80-х» - состоялся 29 ноября 2014 года в СК Олимпийский».
«Авторадио» снова подарило всем ценителям хорошей музыки фантастическое, захватывающее шоу, в котором гармонично сочетались зажигательные ритмы 80-х и ультрасовременная сценография, эффектные постановки и оригинальные творческие находки. Фестиваль посетили 30 тысяч зрителей.
Неподвластные времени хиты исполнили Thomas Anders, C.C. Catch, Eruption, Silent Circle, Opus, Lian Ross, Riccardo Fogli, Pupo, Ottawan, Ricchi e Poveri, Village People, а также Александр Кутиков и группа «Нюанс», Владимир Пресняков, Андрей Державин, Олег Газманов, Дмитрий Маликов, Валерий Сюткин, Игорь Николаев, Сергей Минаев, Владимир Маркин, Рома Жуков, Сергей Беликов, Виктор Салтыков, Игорь Корнелюк, Юрий Лоза, Игорь Саруханов, Александр Иванов и группа «Рондо», «Кар-Мэн», ВИА «Здравствуй, песня», «Веселые ребята», «Земляне».

треклист

1. Eruption - One way ticket
2. Виктор Салтыков - Белая ночь
3. Игорь Николаве - Такси
4. Ottawan - D.I.S.C.O
5. Ottawan - Hands up
6.Сергей Минаев - Карнавал
7. Рома Жуков - Я люблю вас девочки, Я люблю вас мальчики
8. Ricchi E Poveri - Mamma Maria
9. Ricchi E Poveri - Cosa Sei
10. Игорь Саруханов - Поворот
11. Андрей Державин - Алиса
12. Silent Circle - Touch in the night
13. Silent Circle - Stop the rain in the night
14. Здравствуй, песня - Просто уходило лето
15. Земляне - Трава у дома
16. Riccardo Fogli - Storie Di Tutti I Giorno
17. Riccardo Fogli - Malinconia
18. Дмитрий Маликов - Брачный кортеж
19. Валерий Сюткин - Черный кот
20. Валерий Сюткин - Московский бит
21.Opus - Life is Life
22. Игорь Корнелюк - Мало ли
23. Юрий Лоза - Плот
24. Lian Ross - Say You'll Never
25. Сергей Беликов - Радуга
26. Александр Иванов и гр.Рондо - Бледный Бармен
27. Александр Иванов и гр.Рондо - Я буду помнить
28. Pupo - Lo Devo Solo A Te
29. Pupo - Gelato Al Cioccolato
30. Веселые ребята - Не волнуйтесь тетя
31. Веселые ребята - Розовые розы (Светке Соколовой)
32. Владимир Маркин - Сиреневый туман
33. Владимир Пресняков - Не умирай любовь
34. Владимир Пресняков - Недотрога
35. Village people - Megamix
36. Village people - Y.M.C.A
37. Олег Газманов - Свежий ветер
38. Олег Газманов - Сделаны в СССР
39. Александр Кутиков и гр.Ньюанс - Помечтать
40. Александр Кутиков и гр.Ньюанс - Поворот
41. Кар-Мэн - Bad Russian
42. Кар-Мэн - Лондон гудбай
43. C.C. Catch - Megamix
44. C.C. Catch - Heaven and hell
45. Tomas Anders - Brother Louie
46. Tomas Anders - You Can Win, If You Want
47. Tomas Anders - You're My Heart You're My Soul (acoustic)
48. Tomas Anders - You're My Heart You're My Soul
-Качество: WEB-DLRip (720p)
Формат: MPEG-4
Видео: AVC, 9000 kbps, 1280x720, 29.970 fps
Аудио: AAC, 2 ch, 256 kbps, 48.0 kHz
Перевод: Не требуется
Продолжительность: 04:05:01-

MI

Полное имя : Большая Дискотека 80-х Авторадио 29-11-2014 (полная версия).mp4
Формат : MPEG-4
Профиль формата : Base Media / Version 2
Идентификатор кодека : mp42
Размер файла : 15,2 Гбайт
Продолжительность : 4 ч. 5 м.
Режим общего битрейта : Переменный
Общий поток : 8878 Кбит/сек
Дата кодирования : UTC 2014-11-30 14:03:45
Дата пометки : UTC 2014-11-30 14:03:45
©TIM : 00;00;00;00
©TSC : 30000
©TSZ : 1001
Видео
Идентификатор : 1
Формат : AVC
Формат/Информация : Advanced Video Codec
Профиль формата : Main@L3.2
Параметр CABAC формата : Да
Параметр ReFrames формата : 3 кадра
Параметр GOP формата : M=4, N=33
Идентификатор кодека : avc1
Идентификатор кодека/Информация : Advanced Video Coding
Продолжительность : 4 ч. 5 м.
Вид битрейта : Постоянный
Битрейт : 9000 Кбит/сек
Ширина : 1280 пикселей
Высота : 720 пикселей
Соотношение сторон : 16:9
Режим частоты кадров : Постоянный
Частота кадров : 29,970 кадров/сек
Стандарт вещания : NTSC
Цветовое пространство : YUV
Субдискретизация насыщенности : 4:2:0
Битовая глубина : 8 бит
Тип развёртки : Прогрессивная
Бит/(Пиксели*Кадры) : 0.326
Размер потока : 14,8 Гбайт (97%)
Язык : English
Дата кодирования : UTC 2014-11-30 14:03:45
Дата пометки : UTC 2014-11-30 14:03:45
Аудио
Идентификатор : 2
Формат : AAC
Формат/Информация : Advanced Audio Codec
Профиль формата : LC
Идентификатор кодека : 40
Продолжительность : 4 ч. 5 м.
Продолжительность оригинала : 4 ч. 5 м.
Вид битрейта : Переменный
Битрейт : 253 Кбит/сек
Максимальный битрейт : 368 Кбит/сек
Каналы : 2 канала
Расположение каналов : Front: L R
Частота : 48,0 КГц
Метод сжатия : С потерями
Размер потока : 444 Мбайт (3%)
Размер потока оригинала : 444 Мбайт (3%)
Язык : English
Дата кодирования : UTC 2014-11-30 14:03:45
Дата пометки : UTC 2014-11-30 14:03:45
--Скриншоты:
--
[Профиль] [ЛС]
Показать сообщения:    

Текущее время: Сегодня 11:06

Часовой пояс: GMT



Вы не можете начинать темы
Вы не можете отвечать на сообщения
Вы не можете редактировать свои сообщения
Вы не можете удалять свои сообщения
Вы не можете голосовать в опросах
Вы не можете прикреплять файлы к сообщениям
Вы не можете скачивать файлы