Автомобиль, любовь и горчица (Иван Уфимцев, Михаил Каменецкий) [1966, мультфильм, DVB]

 
Автор Сообщение

TorrentFilm ®

Пол:

Стаж: 2 года

Сообщений: 7741



Награды: Нет

Торрент-статистика

Создавать темы 01-Янв-2016 00:21

[Цитировать]

Автомобиль, любовь и горчица
Жанр: мультфильм
Год выпуска: 1966
Продолжительность: 00:14:31
Режиссёр: Иван Уфимцев, Михаил Каменецкий
Описание: мультфильм предназначенный для взрослых, рассказывает о злоключениях владельца автомобиля и высмеивает некоторые неурядицы нашей жизни ...
Доп. информация: огромная благодарность за предоставленный исходник

Релиз группы:
Трансляция спутникового канала:

Качество видео: DVB
Формат видео: MPEG-PS
Видео: MPEG2 Video, 720x576@768x576 (4:3), анаморф, 25 fps, 9000 kbps
Аудио: MPEG Audio, 2 сh, 48 kHz, 384 Kbps

MediaInfo

F:\Автомобиль, любовь и горчица. (1966)_DVB by RG multfilms.MPG
General
Complete name : F:\Автомобиль, любовь и горчица. (1966)_DVB by RG multfilms.MPG
Format : MPEG-PS
File size : 993 MiB
Duration : 14mn 31s
Overall bit rate : 9 558 Kbps
Video #224
ID : 224 (0xE0)
Format : MPEG Video
Format version : Version 2
Format profile : Main@Main
Format settings, BVOP : Yes
Format settings, Matrix : Custom
Format settings, GOP : M=3, N=12
Duration : 14mn 31s
Bit rate : 9 000 Kbps
Width : 720 pixels
Height : 576 pixels
Display aspect ratio : 4:3
Frame rate : 25.000 fps
Standard : PAL
Color space : YUV
Chroma subsampling : 4:2:0
Bit depth : 8 bits
Scan type : Interlaced
Scan order : Top Field First
Compression mode : Lossy
Bits/(Pixel*Frame) : 0.868
Time code of first frame : 00:25:28:20
Time code source : Group of pictures header
Stream size : 933 MiB (94%)
Audio #192
ID : 192 (0xC0)
Format : MPEG Audio
Format version : Version 1
Format profile : Layer 2
Duration : 14mn 31s
Bit rate mode : Constant
Bit rate : 384 Kbps
Channel(s) : 2 channels
Sampling rate : 48.0 KHz
Compression mode : Lossy
Delay relative to video : -32ms
Stream size : 39.9 MiB (4%)
Menu

Скриншоты


[Профиль] [ЛС]
Показать сообщения:    

Текущее время: Сегодня 00:20

Часовой пояс: GMT



Вы не можете начинать темы
Вы не можете отвечать на сообщения
Вы не можете редактировать свои сообщения
Вы не можете удалять свои сообщения
Вы не можете голосовать в опросах
Вы не можете прикреплять файлы к сообщениям
Вы не можете скачивать файлы