Австралия / Australia (2008) BDRip 1080p

 
Автор Сообщение

sergej644 ®

Пол:

Стаж: 4 года 11 месяцев

Сообщений: 6041

Откуда: Soviet Union



Награды: Нет

Торрент-статистика

Создавать темы 21-Янв-2015 21:45

[Цитировать]

Информация о фильме
Название: Австралия
Оригинальное название: Australia
Год выхода: 2008
Жанр: драма, приключения, вестерн, военный
Режиссер: Баз Лурман
В ролях: Николь Кидман, Хью Джекман, Дэвид Уэнэм, Брайан Браун, Джек Томпсон, Дэвид Гулпилил, Брэндон Уолтерс, Дэвид Нгумбуджарра, Бен Мендельсон, Эсси Дэвис
О фильме:
В основе сюжета положена история английской аристократки, получающей в наследство огромное ранчо на севере австралийского материка. Перед началом Второй мировой войны она приезжает в имение для того, чтобы оберечь его от попыток английских скотоводов заполучить ранчо под названием Faraway Downs в свою собственность, и сталкивается с необходимостью при помощи героя Джекмена перегнать 1500 голов скота через тысячи миль в город Дарвин. Там двое попадают под массированные бомбардировки со стороны японского Императорского флота.

Выпущено: США, Австралия, Великобритания
Студия: 20th Century Fox
Продолжительность: 02:45:28
Перевод: Дублированный (лицензия) + Оригинал
Файл
Кодек: x264
Качество: BDRip (источник: Blu-ray Disc)
Видео: 1920x816 (2,35:1), 23.976 fps, 8705 kbps
Аудио #1: AC-3, 6 ch, 640 kbps (Rus)
Аудио #2: AC-3, 6 ch, 640 kbps (Eng)
Субтитры: Русские (Forced), Русские, Английские

Скриншоты

MI

Общее
Уникальный идентификатор : 193264136180279370242075777212085596704 (0x916551969F773F67AB79C868A7367220)
Полное имя : E:Australia.2008.BDRip.1080p.Rus.Eng.mkv
Формат : Matroska
Версия формата : Version 2
Размер файла : 11,5 Гбайт
Продолжительность : 2 ч. 45 м.
Общий поток : 9981 Кбит/сек
Название фильма : Австралия / Australia (2008)
Дата кодирования : UTC 2013-09-27 05:00:54
Программа кодирования : mkvmerge v5.8.0 ('No Sleep / Pillow') built on Sep 2 2012 15:37:04
Библиотека кодирования : libebml v1.2.3 + libmatroska v1.3.0
Attachment : Yes
Видео
Идентификатор : 1
Формат : AVC
Формат/Информация : Advanced Video Codec
Профиль формата : High@L4.1
Параметр CABAC формата : Да
Параметр ReFrames формата : 5 кадров
Идентификатор кодека : V_MPEG4/ISO/AVC
Продолжительность : 2 ч. 45 м.
Битрейт : 8705 Кбит/сек
Ширина : 1920 пикселей
Высота : 816 пикселей
Соотношение сторон : 2,35:1
Режим частоты кадров : Постоянный
Частота кадров : 23,976 кадра/сек
Цветовое пространство : YUV
Субдискретизация насыщенности : 4:2:0
Битовая глубина : 8 бит
Тип развёртки : Прогрессивная
Бит/(Пиксели*Кадры) : 0.232
Размер потока : 9,83 Гбайт (85%)
Заголовок : Release by N1NT3NDO
Библиотека кодирования : x264 core 138 r2358 9e941d1
Настройки программы : cabac=1 / ref=5 / deblock=1:-3:-3 / analyse=0x3:0x133 / me=tesa / subme=11 / psy=1 / psy_rd=1.00:0.00 / mixed_ref=1 / me_range=32 / chroma_me=1 / trellis=2 / 8x8dct=1 / cqm=0 / deadzone=21,11 / fast_pskip=0 / chroma_qp_offset=-2 / threads=12 / lookahead_threads=1 / sliced_threads=0 / nr=0 / decimate=0 / interlaced=0 / bluray_compat=0 / constrained_intra=0 / bframes=6 / b_pyramid=2 / b_adapt=2 / b_bias=0 / direct=3 / weightb=1 / open_gop=0 / weightp=2 / keyint=240 / keyint_min=23 / scenecut=40 / intra_refresh=0 / rc_lookahead=80 / rc=2pass / mbtree=0 / bitrate=8705 / ratetol=1.0 / qcomp=0.60 / qpmin=0 / qpmax=69 / qpstep=4 / cplxblur=20.0 / qblur=0.5 / vbv_maxrate=50000 / vbv_bufsize=62500 / nal_hrd=none / ip_ratio=1.40 / pb_ratio=1.30 / aq=1:1.00
Язык : English
Default : Да
Forced : Нет
Аудио #1
Идентификатор : 2
Формат : AC-3
Формат/Информация : Audio Coding 3
Расширение режима : CM (complete main)
Параметр Endianness формата : Big
Идентификатор кодека : A_AC3
Продолжительность : 2 ч. 45 м.
Вид битрейта : Постоянный
Битрейт : 640 Кбит/сек
Каналы : 6 каналов
Расположение каналов : Front: L C R, Side: L R, LFE
Частота : 48,0 КГц
Битовая глубина : 16 бит
Метод сжатия : С потерями
Размер потока : 757 Мбайт (6%)
Заголовок : Rus
Язык : Russian
Default : Да
Forced : Нет
Аудио #2
Идентификатор : 3
Формат : AC-3
Формат/Информация : Audio Coding 3
Расширение режима : CM (complete main)
Параметр Endianness формата : Big
Идентификатор кодека : A_AC3
Продолжительность : 2 ч. 45 м.
Вид битрейта : Постоянный
Битрейт : 640 Кбит/сек
Каналы : 6 каналов
Расположение каналов : Front: L C R, Side: L R, LFE
Частота : 48,0 КГц
Битовая глубина : 16 бит
Метод сжатия : С потерями
Размер потока : 757 Мбайт (6%)
Заголовок : Eng
Язык : English
Default : Нет
Forced : Нет
Текст #1
Идентификатор : 4
Формат : UTF-8
Идентификатор кодека : S_TEXT/UTF8
Идентификатор кодека/Информация : UTF-8 Plain Text
Заголовок : Rus (Forced)
Язык : Russian
Default : Да
Forced : Нет
Текст #2
Идентификатор : 5
Формат : UTF-8
Идентификатор кодека : S_TEXT/UTF8
Идентификатор кодека/Информация : UTF-8 Plain Text
Заголовок : Rus
Язык : Russian
Default : Нет
Forced : Нет
Текст #3
Идентификатор : 6
Формат : UTF-8
Идентификатор кодека : S_TEXT/UTF8
Идентификатор кодека/Информация : UTF-8 Plain Text
Заголовок : Eng
Язык : English
Default : Нет
Forced : Нет
Меню
00:00:00.000 : :Chapter 01
00:05:03.886 : :Chapter 02
00:06:08.785 : :Chapter 03
00:16:17.893 : :Chapter 04
00:22:30.557 : :Chapter 05
00:26:59.117 : :Chapter 06
00:32:40.333 : :Chapter 07
00:41:30.613 : :Chapter 08
00:52:23.014 : :Chapter 09
00:57:29.320 : :Chapter 10
01:00:07.520 : :Chapter 11
01:09:48.893 : :Chapter 12
01:14:57.409 : :Chapter 13
01:18:07.099 : :Chapter 14
01:29:32.450 : :Chapter 15
01:38:19.226 : :Chapter 16
01:44:46.655 : :Chapter 17
01:47:32.320 : :Chapter 18
01:54:33.074 : :Chapter 19
01:56:05.583 : :Chapter 20
02:03:37.660 : :Chapter 21
02:08:31.370 : :Chapter 22
02:14:35.108 : :Chapter 23
02:23:16.838 : :Chapter 24
02:33:59.563 : :Chapter 25
02:37:46.415 : :Chapter 26
[Профиль] [ЛС]
Кто просматривает тему:

Форум Тема Автор Размер
Viasat Nature Viasat Nature: Австралия: путешествие сквозь эволюцию / Australia - A Journey Through Evolution (Laura Casamayor del Rincon) [2014 г., Документальный, познавательный, SATRip] skorpionN 744 MB
XXXI Летние Олимпийские игры. Рио-де-Жанейро 2016 (Бразилия) XXXI Летние Олимпийские Игры. Баскетбол. Мужчины. Полуфинал. Австралия - Сербия [Матч Игра] [19.08] (2016) HDTV 1080i BOSS 8 GB
XXXI Летние Олимпийские игры. Рио-де-Жанейро 2016 (Бразилия) XXXI Летние Олимпийские Игры. Рио-де-Жанейро (Бразилия). Баскетбол. Мужчины. Группа A. 3-й тур. Австралия - США [Матч! ТВ] [10.08] (2016) WEBRip-AVC BOSS 1.97 GB
XXXI Летние Олимпийские игры. Рио-де-Жанейро 2016 (Бразилия) XXXI Летние Олимпийские Игры. Рио-де-Жанейро (Бразилия). Водное поло. Женщины. Группа A. 1-й тур. Россия - Австралия [09.08] (2016) IPTV 1080i BOSS 2.07 GB
Фильмы 2011 года Аквамарин / Aquamarine (Элизабет Аллен / Elizabeth Allen Rosenbaum) [2006, США, Австралия, фэнтези, мелодрама, комедия, семейный, BDRip] MVO TorrentFilm 1.45 GB
Разная литература Андрей Шарый, Ярослав Шимов - Австро-Венгрия: судьба империи (2015) FB2 достали все 16 MB
Фильмы (HD DVD, Blu-ray и BDRemux) Безумный Макс / Mad Max (Джордж Миллер / George Miller) [1979, Австралия, боевик, триллер, приключения, Blu-ray Disc 1080p] sergej644 21.48 GB
Фильмы 2015 года Безумный Макс: Дорога ярости / Mad Max: Fury Road (Джордж Миллер / George Miller) [2015 г., Австралия, США, Боевик, BDRip] AVO (Карповский) TorrentFilm 2.18 GB
Показать сообщения:    

Текущее время: Сегодня 21:02

Часовой пояс: GMT



Вы не можете начинать темы
Вы не можете отвечать на сообщения
Вы не можете редактировать свои сообщения
Вы не можете удалять свои сообщения
Вы не можете голосовать в опросах
Вы не можете прикреплять файлы к сообщениям
Вы не можете скачивать файлы