Август. Восьмого (Джаник Файзиев) [2012 г., Россия, драма, военный, BDRip 720p]

 
Автор Сообщение

TorrentFilm ®

Пол:

Стаж: 2 года

Сообщений: 7741



Награды: Нет

Торрент-статистика

Создавать темы 01-Янв-2016 00:06

[Цитировать]

Август. Восьмого
Страна: Россия
Жанр: драма, военный
Год выпуска: 2012
Продолжительность: 02:12:09-Перевод: Оригинал
Cубтитры: нет
Оригинальная аудиодорожка: Russian-Режиссер: Джаник Файзиев
В ролях: Светлана Иванова, Максим Матвеев, Егор Бероев, Артем Фадеев, Владимир Вдовиченков, Сергей Газаров, Гоша Куценко, Анатолий Белый, Кирилл Плетнёв, Алексей Гуськов-Описание: Когда события нанизываются одно на другое, когда каждая минута ставит тебя перед выбором, когда жизнь и смерть становятся частью страшной компьютерной игры, пульт от которой - в чужих руках, тогда ты начинаешь действовать так, будто каждая минута - последняя.
Казалось бы, жизнь хорошенькой разведенной москвички Ксении оставляет не много места для драматических ситуаций: да, сын Тема тяжело переживает развод родителей, да, поклонник поглощен карьерой, да, мама вмешивается в личную жизнь, - но трудно назвать эти обстоятельства критическими.
Все меняется, когда бывший муж, офицер миротворческих сил, просит Ксению прислать Тему к нему, подышать горным воздухом в прекрасной деревушке в доме его родителей! Он уверяет, что это совершенно безопасно - да маленький Тема и не чувствует никакого страха, ведь рядом папа, добрый и непобедимый герой. Но наступает день, когда вражеские танки входят в город - и мир самых страшных игровых иллюзий мальчика становится реальностью. На экране оживают компьютерные драконы и злые космические демоны, втягивая живых людей в огненную вакханалию войны.
Ксения обязана выжить в военном аду, пройти через адскую мясорубку прошитого пулями города, чтобы спасти того, кого любит. У нее нет другой цели - и нет другого пути.- -Качество: BDRip 720p
Контейнер: MKV
Видео: H.264, 1280x544, 23,976 fps, 8092 Kbps
Аудио: Russian: AC3 5.1, 48 kHz, 448 kbps avg

MediaInfo

Общее
Уникальный идентификатор : 221522593136707426067648391543754359681 (0xA6A7B3159464C5E196B5AC66E1448381)
Полное имя : E:\Avgust.8.BDRip.720p.mkv
Формат : Matroska
Версия формата : Version 2
Размер файла : 8,04 Гбайт
Продолжительность : 2 ч. 12 м.
Общий поток : 8713 Кбит/сек
Название фильма : Август. Восьмого (2012) - Release for HDCLUB
Дата кодирования : UTC 2012-03-27 13:53:46
Программа кодирования : mkvmerge v5.4.0 ('Piper') built on Mar 10 2012 13:34:39
Библиотека кодирования : libebml v1.2.3 + libmatroska v1.3.0
Видео
Идентификатор : 1
Формат : AVC
Формат/Информация : Advanced Video Codec
Профиль формата : High@L4.1
Параметр CABAC формата : Да
Параметр ReFrames формата : 10 кадров
Идентификатор кодека : V_MPEG4/ISO/AVC
Продолжительность : 2 ч. 12 м.
Битрейт : 8092 Кбит/сек
Ширина : 1280 пикселей
Высота : 544 пикселя
Соотношение сторон : 2,35:1
Частота кадров : 23,976 кадра/сек
Цветовое пространство : YUV
Субдискретизация насыщенности : 4:2:0
Битовая глубина : 8 бит
Тип развёртки : Прогрессивная
Бит/(Пиксели*Кадры) : 0.485
Размер потока : 7,47 Гбайт (93%)
Заголовок : Август. Восьмого (2012) - Release for HDCLUB
Библиотека кодирования : x264 core 122 r2184 5c85e0a
Настройки программы : cabac=1 / ref=10 / deblock=1:-3:-3 / analyse=0x3:0x133 / me=umh / subme=11 / psy=1 / psy_rd=1.00:0.00 / mixed_ref=1 / me_range=64 / chroma_me=1 / trellis=2 / 8x8dct=1 / cqm=0 / deadzone=21,11 / fast_pskip=0 / chroma_qp_offset=-2 / threads=9 / sliced_threads=0 / nr=0 / decimate=0 / interlaced=0 / bluray_compat=0 / constrained_intra=0 / bframes=7 / b_pyramid=2 / b_adapt=2 / b_bias=0 / direct=3 / weightb=1 / open_gop=0 / weightp=2 / keyint=240 / keyint_min=23 / scenecut=40 / intra_refresh=0 / rc_lookahead=40 / rc=crf / mbtree=0 / crf=16.7 / qcomp=0.60 / qpmin=0 / qpmax=69 / qpstep=4 / vbv_maxrate=50000 / vbv_bufsize=62500 / crf_max=0.0 / nal_hrd=none / ip_ratio=1.40 / pb_ratio=1.30 / aq=1:0.80
Язык : Russian
Default : Нет
Forced : Нет
Аудио
Идентификатор : 2
Формат : AC-3
Формат/Информация : Audio Coding 3
Расширение режима : CM (complete main)
Параметр Endianness формата : Big
Идентификатор кодека : A_AC3
Продолжительность : 2 ч. 12 м.
Вид битрейта : Постоянный
Битрейт : 448 Кбит/сек
Каналы : 6 каналов
Расположение каналов : Front: L C R, Side: L R, LFE
Частота : 48,0 КГц
Битовая глубина : 16 бит
Метод сжатия : С потерями
Размер потока : 423 Мбайт (5%)
Язык : Russian
Default : Да
Forced : Да
Меню
00:00:00.000 : en:Chapter 01
00:09:27.400 : en:Chapter 02
00:19:43.765 : en:Chapter 03
00:30:03.885 : en:Chapter 04
00:42:15.533 : en:Chapter 05
00:52:50.250 : en:Chapter 06
01:03:11.579 : en:Chapter 07
01:12:51.825 : en:Chapter 08
01:24:27.187 : en:Chapter 09
01:35:20.089 : en:Chapter 10
01:45:44.421 : en:Chapter 11
01:56:43.538 : en:Chapter 12
02:08:09.723 : en:Chapter 13
02:12:09.212 : en:Chapter 14

Скриншоты

[Профиль] [ЛС]
Показать сообщения:    

Текущее время: Сегодня 06:07

Часовой пояс: GMT



Вы не можете начинать темы
Вы не можете отвечать на сообщения
Вы не можете редактировать свои сообщения
Вы не можете удалять свои сообщения
Вы не можете голосовать в опросах
Вы не можете прикреплять файлы к сообщениям
Вы не можете скачивать файлы