Аватар / Avatar (Джеймс Кэмерон) [2009 г., фантастика, боевик, драма, приключения, BDRip-AVC] [DUB] [Extended Collector's Cut]

 
Автор Сообщение

Bathory ®

Пол:

Стаж: 1 год 7 месяцев

Сообщений: 314



Награды: 3 (Подробнее)

За внесенный вклад в развитие сайта (Количество: 1) Girls (Количество: 1) Друг (Количество: 1)
Торрент-статистика

Создавать темы 03-Авг-2017 09:09

[Цитировать]

Аватар / Avatar- Информация о фильме
Название: Аватар
Оригинальное название: Avatar | Extended Collector's Cut
Год выхода: 2009
Жанр: фантастика, боевик, драма, приключения
Режиссер: Джеймс Кэмерон
В ролях: Сэм Уортингтон, Зои Салдана, Сигурни Уивер, Стивен Лэнг, Мишель Родригес, Джованни Рибизи, Джоэль Мур, Си Си Эйч Паундер, Уэс Стьюди, Лас Алонсо
О фильме:
Джейк Салли — бывший морской пехотинец, прикованный к инвалидному креслу. Несмотря на немощное тело, Джейк в душе по-прежнему остается воином. Он получает задание совершить путешествие в несколько световых лет к базе землян на планете Пандора, где корпорации добывают редкий минерал, имеющий огромное значение для выхода Земли из энергетического кризиса.

Страна: Великобритания, США
Студия: Twentieth Century Fox Film Corporation, Dune Entertainment, Ingenious Film Partners
Продолжительность: 02:58:09
Перевод: Дубляж
Файл
Кодек: AVC
Качество: BDRip-AVC |Исх. BDRemux 1080p|
Видео: 768x432, 1071 kbps, 23,976 fps, 0,135 Bits/(Pixel*Frame)
Звук: AAC, 48 kHz, 2 ch, 96 kbps
Субтитры: Русские форсированные (на язык Нави), русские полные

MI

Общее
Unique ID : 175438164574744752379701262548361028649 (0x83FC295511643E878AC7581260642429)
Complete name : E:Avatar.2009.Extended.Collectors.Cut.BDRip-AVC.MegaPeer.mkv
Format : Matroska
Format version : Version 4 / Version 2
File size : 1,45 Гбайт
Duration : 2 ч. 58 м.
Overall bit rate : 1168 Кбит/сек
Movie name : Avatar.2009.Extended.Collectors.Cut.1080p.Blu-ray.AVC
Encoded date : UTC 2017-08-03 08:24:39
Writing application : mkvmerge v14.0.0 ('Flow') 64bit
Writing library : libebml v1.3.4 + libmatroska v1.4.5
Attachments : PapyrusCyr.ttf / tahoma.ttf
Видео
ID : 1
Format : AVC
Format/Info : Advanced Video Codec
Format profile : High@L4.1
Format settings, CABAC : Да
Format settings, ReFrames : 11 кадров
Codec ID : V_MPEG4/ISO/AVC
Duration : 2 ч. 58 м.
Bit rate : 1071 Кбит/сек
Width : 768 пикселей
Height : 432 пикселя
Display aspect ratio : 16:9
Frame rate mode : Постоянный
Frame rate : 23,976 (24000/1001) кадра/сек
Color space : YUV
Chroma subsampling : 4:2:0
Bit depth : 8 бит
Scan type : Прогрессивная
Bits/(Pixel*Frame) : 0.135
Stream size : 1,33 Гбайт (92%)
Writing library : x264 core 152 r2851 ba24899
Encoding settings : cabac=1 / ref=11 / deblock=1:-2:-2 / analyse=0x3:0x133 / me=umh / subme=11 / psy=1 / psy_rd=1.00:0.10 / mixed_ref=1 / me_range=32 / chroma_me=1 / trellis=2 / 8x8dct=1 / cqm=0 / deadzone=21,11 / fast_pskip=0 / chroma_qp_offset=-3 / threads=12 / lookahead_threads=3 / sliced_threads=0 / nr=0 / decimate=0 / interlaced=0 / bluray_compat=0 / constrained_intra=0 / bframes=14 / b_pyramid=2 / b_adapt=2 / b_bias=0 / direct=3 / weightb=1 / open_gop=0 / weightp=2 / keyint=240 / keyint_min=24 / scenecut=0 / intra_refresh=0 / rc_lookahead=60 / rc=2pass / mbtree=1 / bitrate=1071 / ratetol=1.0 / qcomp=0.60 / qpmin=0 / qpmax=51 / qpstep=4 / cplxblur=15.0 / qblur=0.5 / vbv_maxrate=50000 / vbv_bufsize=62500 / nal_hrd=none / filler=0 / ip_ratio=1.40 / aq=1:1.00
Default : Да
Forced : Нет
Аудио
ID : 2
Format : AAC
Format/Info : Advanced Audio Codec
Format profile : LC
Codec ID : A_AAC
Duration : 2 ч. 58 м.
Bit rate : 96,0 Кбит/сек
Channel(s) : 2 канала
Channel positions : Front: L R
Sampling rate : 48,0 КГц
Frame rate : 46,875 кадров/сек (1024 spf)
Compression mode : С потерями
Delay relative to video : 9 мс.
Stream size : 122 Мбайт (8%)
Language : Russian
Default : Да
Forced : Нет
Текст #1
ID : 3
Format : ASS
Codec ID : S_TEXT/ASS
Codec ID/Info : Advanced Sub Station Alpha
Duration : 2 ч. 43 м.
Bit rate : 7 бит/сек
Count of elements : 113
Compression mode : Без потерь
Stream size : 8,70 Кбайт (0%)
Title : Forced
Language : Russian
Default : Да
Forced : Да
Текст #2
ID : 4
Format : ASS
Codec ID : S_TEXT/ASS
Codec ID/Info : Advanced Sub Station Alpha
Duration : 2 ч. 57 м.
Bit rate : 99 бит/сек
Count of elements : 1521
Compression mode : Без потерь
Stream size : 130 Кбайт (0%)
Title : Full
Language : Russian
Default : Нет
Forced : Нет
Меню
00:00:00.000 : en:Lost Soul
00:05:25.575 : en:A New World
00:10:12.278 : en:You Are Not In Kansas Anymore
00:11:47.915 : en:"This Is Your Avatar Now, Jake ."
00:15:59.208 : en:"This Is Why We're Here..."
00:17:54.782 : en:First Awakening
00:23:54.891 : en:Colonel Quaritch
00:27:54.547 : en:First Sortie
00:30:27.617 : en:Abandoned Schoolhouse
00:32:27.904 : en:Thanator Chase
00:37:16.525 : en:A Sign
00:39:08.053 : en:Viperwolves
00:41:18.475 : en:Neytiri
00:49:16.912 : en:The Omaticaya Clan
00:55:42.213 : en:Cover Report
01:01:09.415 : en:The Hallelujah Mountains
01:07:03.227 : en:Learn Fast Or Die
01:11:50.222 : en:A Mother's Pain
01:15:53.799 : en:Banshee Rookery
01:22:38.119 : en:First Flight
01:26:12.709 : en:Clan Hunt
01:27:42.298 : en:Last Shadow
01:33:00.407 : en:A Son Of the Omaticaya
01:37:36.892 : en:Willow Glade Destruction
01:44:15.290 : en:Conflict Escalation
01:50:02.595 : en:"You Will Never Be One Of The People!"
01:51:53.581 : en:Assault On Hometree
01:58:30.895 : en:Aftermath
02:02:13.284 : en:Escape From Hell's Gate
02:07:51.663 : en:There's Something We Gotta Do..."
02:09:30.554 : en:Toruk Macto
02:12:36.615 : en:"She's Real"
02:16:03.363 : en:Recruiting The Clans
02:19:31.654 : en:Preamble To Battle
02:23:59.630 : en:Battle For Pandora
02:30:05.079 : en:Fall Of The Heroes
02:33:56.852 : en:Eywa
02:40:02.259 : en:Quartich Fight
02:45:33.214 : en:"I See You"
02:46:48.498 : en:My Brother
02:48:56.793 : en:Transformation
02:51:32.073 : en:End Credits

Скриншоты

Релиз:
[Профиль] [ЛС]
Кто просматривает тему:

Форум Тема Автор Размер
Фильмы (HD DVD, Blu-ray и BDRemux) Аватар / Avatar (2009) BDRemux 1080p | D, A, L1 BOSS 50.63 GB
Фильмы (HD Rips | 720p, 1080p) Аватар / Avatar (2009) BDRip 1080p от R.G. HD-Films | 60 fps | D sergej644 23.26 GB
Фильмы (HD Rips | 720p, 1080p) Аватар / Avatar (2009) BDRip-HEVC 1080p | Extended Collector's Edition | D Swager 14.1 GB
Фильмы 2009 года Аватар / Avatar (Джеймс Кэмерон / James Cameron) [2009, США, Великобритания, фантастика, боевик, драма, приключения, BDRip] [Театральная версия] AVO (Горчаков) TorrentFilm 2.92 GB
Фильмы 2009 года Аватар / Avatar (Джеймс Кэмерон / James Cameron) [2009, США, Фантастика, боевик, драма, приключения, BDRip] [Расширенная версия / Extended Cut] Dub + Sub TorrentFilm 1.47 GB
Фильмы 2009 года Аватар / Avatar (Джеймс Кэмерон / James Cameron) [2009, США, фантастика, приключения, BDRip] [Extended Cut / Расширенная версия] Dub + Sub (Rus) reversefile 2.18 GB
Фильмы (HD DVD, Blu-ray и BDRemux) Аватар / Avatar (Джеймс Кэмерон)[2009, фантастика, боевик, драма,DVD9] | Расширенное коллекционное издание sergej644 21.67 GB
Зарубежные Аватар 3Д / Avatar 3D (James Cameron / Джеймс Кэмерон) [2009, Фантастика, Боевик, Драма, Приключения, BDrip-AVC] Half OverUnder / Вертикальная анаморфная стереопара, Расширенная версия / Extended... TorrentFilm 18.52 GB
Показать сообщения:    

Текущее время: Сегодня 00:14

Часовой пояс: GMT



Вы не можете начинать темы
Вы не можете отвечать на сообщения
Вы не можете редактировать свои сообщения
Вы не можете удалять свои сообщения
Вы не можете голосовать в опросах
Вы не можете прикреплять файлы к сообщениям
Вы не можете скачивать файлы