Аватар / Avatar (Джеймс Кэмерон)[2009, фантастика, боевик, драма,DVD9] | Расширенное коллекционное издание

 
Автор Сообщение

sergej644 ®

Пол:

Стаж: 4 года 11 месяцев

Сообщений: 6042

Откуда: Soviet Union



Награды: Нет

Торрент-статистика

Создавать темы 17-Мар-2015 22:06

[Цитировать]

--Аватар / Avatar

Название: Аватар
Оригинальное название: Avatar
Год выхода: 2009
Жанр: фантастика, боевик, драма, приключения
Режиссер: Джеймс Кэмерон
В ролях: Сэм Уортингтон, Зои Салдана, Сигурни Уивер, Стивен Лэнг, Мишель Родригес, Джованни Рибизи, Джоэль Мур, Си Си Эйч Паундер, Уэс Стьюди, Лас Алонсо

Джейк Салли — бывший морской пехотинец, прикованный к инвалидному креслу. Несмотря на немощное тело, Джейк в душе по-прежнему остается воином. Он получает задание совершить путешествие в несколько световых лет к базе землян на планете Пандора, где корпорации добывают редкий минерал, имеющий огромное значение для выхода Земли из энергетического кризиса.


детям до 13 лет просмотр не желателен
Страна: США, Великобритания
Студия: 20th Century Fox Film Corporation, Dune Entertainment
Продолжительность: 171 мин. / 02:51
Перевод: полное дублирование
Файл
Кодек: MPEG2
Качество: 3xDVD9 "Двадцатый Век Фокс СНГ"
Видео: PAL 16:9 (720x576@1024x576) VBR 5179 Kbps, 25.000 fps
Аудио 1: Dolby AC3, 6 ch, 48.0 KHz, 448 Kbps (английский)
Аудио 2: Dolby AC3, 6 ch, 48.0 KHz, 384 Kbps (русский)
Аудио 3: Dolby AC3, 6 ch, 48.0 KHz, 384 Kbps (польский)
Аудио 4: Dolby AC3, 2 ch, 48.0 KHz, 192 Kbps (английский)
Субтитры: русские, английские, украинские, арабские, греческие, польские, португальские, румынские

Дополнительные материалы

Диск 1: Аватар - часть первая:
Оригинальная версия для кинотеатров
Расширенная версия для коллекционеров
Повторный выпуск специального издания
Аудиокомментарии Джеймса Кэмерона
Диск 2: Аватар - часть вторая:
Оригинальная версия для кинотеатров
Расширенная версия для коллекционеров
Повторный выпуск специального издания
Аудиокомментарии Джеймса Кэмерона
+ Бонус "Сообщение с Пандоры":
Хронометраж: 20 минут
Английский с русскими субтитрами Dolby Digital 2.0
Диск 3: Погружение в создание фильма:
Создание "Аватара"
Английский с русскими субтитрами Dolby Digital 2.0
Субтитры: Русский / Английский / Французский / Датский / Норвежский / Нидерландский / Шведский / Суоми
Удаленные сцены: то, что Вы никогда ранее не видели
Английский с русскими субтитрами Dolby Digital 2.0
Новые дополнительные сцены из повторного выпуска специального издания
Русский Дубляж Dolby Digital 5.1
Французский Dolby Digital 5.1
Английский Dolby Digital 2.0
Новые дополнительные сцены из расширенной версии для коллекционеров
Русский Дубляж Dolby Digital 5.1
Французский Dolby Digital 5.1
Английский Dolby Digital 2.0

MediaInfo

General
Complete name                  : D:AvatarAVATAR_CE_D1VIDEO_TSVTS_04_2.VOB
Format                         : MPEG-PS
File size                      : 1 024 MiB
Duration                       : 21mn 18s
Overall bit rate mode          : Variable
Overall bit rate               : 6 721 Kbps
Video
ID                             : 224 (0xE0)
Format                         : MPEG Video
Format version                 : Version 2
Format profile                 : Main@Main
Format settings, BVOP          : Yes
Format settings, Matrix        : Custom
Format settings, GOP           : Variable
Duration                       : 21mn 18s
Bit rate mode                  : Variable
Bit rate                       : 5 179 Kbps
Maximum bit rate               : 9 800 Kbps
Width                          : 720 pixels
Height                         : 576 pixels
Display aspect ratio           : 16:9
Frame rate                     : 25.000 fps
Standard                       : Component
Color space                    : YUV
Chroma subsampling             : 4:2:0
Bit depth                      : 8 bits
Scan type                      : Progressive
Scan order                     : Top Field First
Compression mode               : Lossy
Bits/(Pixel*Frame)             : 0.500
Time code of first frame       : 01:05:59:02
Time code source               : Group of pictures header
Stream size                    : 789 MiB (77%)
Color primaries                : BT.601 PAL
Transfer characteristics       : BT.470 System B, BT.470 System G
Matrix coefficients            : BT.601
Audio #1
ID                             : 189 (0xBD)-128 (0x80)
Format                         : AC-3
Format/Info                    : Audio Coding 3
Mode extension                 : CM (complete main)
Format settings, Endianness    : Big
Muxing mode                    : DVD-Video
Duration                       : 21mn 18s
Bit rate mode                  : Constant
Bit rate                       : 448 Kbps
Channel(s)                     : 6 channels
Channel positions              : Front: L C R, Side: L R, LFE
Sampling rate                  : 48.0 KHz
Bit depth                      : 16 bits
Compression mode               : Lossy
Delay relative to video        : -408ms
Stream size                    : 68.3 MiB (7%)
Audio #2
ID                             : 189 (0xBD)-129 (0x81)
Format                         : AC-3
Format/Info                    : Audio Coding 3
Format profile                 : Dolby Digital
Mode extension                 : CM (complete main)
Format settings, Endianness    : Big
Muxing mode                    : DVD-Video
Duration                       : 21mn 18s
Bit rate mode                  : Constant
Bit rate                       : 192 Kbps
Channel(s)                     : 2 channels
Channel positions              : Front: L R
Sampling rate                  : 48.0 KHz
Bit depth                      : 16 bits
Compression mode               : Lossy
Delay relative to video        : -408ms
Stream size                    : 29.3 MiB (3%)
Audio #3
ID                             : 189 (0xBD)-130 (0x82)
Format                         : AC-3
Format/Info                    : Audio Coding 3
Mode extension                 : CM (complete main)
Format settings, Endianness    : Big
Muxing mode                    : DVD-Video
Duration                       : 21mn 18s
Bit rate mode                  : Constant
Bit rate                       : 384 Kbps
Channel(s)                     : 6 channels
Channel positions              : Front: L C R, Side: L R, LFE
Sampling rate                  : 48.0 KHz
Bit depth                      : 16 bits
Compression mode               : Lossy
Delay relative to video        : -408ms
Stream size                    : 58.5 MiB (6%)
Audio #4
ID                             : 189 (0xBD)-131 (0x83)
Format                         : AC-3
Format/Info                    : Audio Coding 3
Mode extension                 : CM (complete main)
Format settings, Endianness    : Big
Muxing mode                    : DVD-Video
Duration                       : 21mn 18s
Bit rate mode                  : Constant
Bit rate                       : 384 Kbps
Channel(s)                     : 6 channels
Channel positions              : Front: L C R, Side: L R, LFE
Sampling rate                  : 48.0 KHz
Bit depth                      : 16 bits
Compression mode               : Lossy
Delay relative to video        : -440ms
Stream size                    : 58.5 MiB (6%)
Text #1
ID                             : 189 (0xBD)-32 (0x20)
Format                         : RLE
Format/Info                    : Run-length encoding
Muxing mode                    : DVD-Video
Delay relative to video        : 2s 680ms
Text #2
ID                             : 189 (0xBD)-33 (0x21)
Format                         : RLE
Format/Info                    : Run-length encoding
Muxing mode                    : DVD-Video
Delay relative to video        : 2s 680ms
Text #3
ID                             : 189 (0xBD)-34 (0x22)
Format                         : RLE
Format/Info                    : Run-length encoding
Muxing mode                    : DVD-Video
Delay relative to video        : 2s 680ms
Text #4
ID                             : 189 (0xBD)-35 (0x23)
Format                         : RLE
Format/Info                    : Run-length encoding
Muxing mode                    : DVD-Video
Delay relative to video        : 2s 680ms
Text #5
ID                             : 189 (0xBD)-36 (0x24)
Format                         : RLE
Format/Info                    : Run-length encoding
Muxing mode                    : DVD-Video
Delay relative to video        : 2s 680ms
Text #6
ID                             : 189 (0xBD)-37 (0x25)
Format                         : RLE
Format/Info                    : Run-length encoding
Muxing mode                    : DVD-Video
Delay relative to video        : 2s 680ms
Text #7
ID                             : 189 (0xBD)-38 (0x26)
Format                         : RLE
Format/Info                    : Run-length encoding
Muxing mode                    : DVD-Video
Delay relative to video        : 2s 680ms
Text #8
ID                             : 189 (0xBD)-39 (0x27)
Format                         : RLE
Format/Info                    : Run-length encoding
Muxing mode                    : DVD-Video
Delay relative to video        : 2s 680ms
Text #9
ID                             : 189 (0xBD)-40 (0x28)
Format                         : RLE
Format/Info                    : Run-length encoding
Muxing mode                    : DVD-Video
Delay relative to video        : 2s 680ms
Text #10
ID                             : 189 (0xBD)-41 (0x29)
Format                         : RLE
Format/Info                    : Run-length encoding
Muxing mode                    : DVD-Video
Delay relative to video        : 2s 680ms
Text #11
ID                             : 189 (0xBD)-42 (0x2A)
Format                         : RLE
Format/Info                    : Run-length encoding
Muxing mode                    : DVD-Video
Delay relative to video        : 2s 680ms
Text #12
ID                             : 189 (0xBD)-43 (0x2B)
Format                         : RLE
Format/Info                    : Run-length encoding
Muxing mode                    : DVD-Video
Delay relative to video        : 2s 680ms
Text #13
ID                             : 189 (0xBD)-44 (0x2C)
Format                         : RLE
Format/Info                    : Run-length encoding
Muxing mode                    : DVD-Video
Delay relative to video        : 2s 680ms
Text #14
ID                             : 189 (0xBD)-45 (0x2D)
Format                         : RLE
Format/Info                    : Run-length encoding
Muxing mode                    : DVD-Video
Delay relative to video        : 2s 680ms
Text #15
ID                             : 189 (0xBD)-46 (0x2E)
Format                         : RLE
Format/Info                    : Run-length encoding
Muxing mode                    : DVD-Video
Delay relative to video        : 2s 680ms
Text #16
ID                             : 189 (0xBD)-47 (0x2F)
Format                         : RLE
Format/Info                    : Run-length encoding
Muxing mode                    : DVD-Video
Delay relative to video        : 2s 680ms
Menu

Скриншоты

[Профиль] [ЛС]
Кто просматривает тему:

Форум Тема Автор Размер
Фильмы (HD Rips | 720p, 1080p) Аватар / Avatar (2009) BDRip 1080p от R.G. HD-Films | 60 fps | D sergej644 23.26 GB
Фильмы 2009 года Аватар / Avatar (Джеймс Кэмерон / James Cameron) [2009, США, Великобритания, фантастика, боевик, драма, приключения, BDRip] [Театральная версия] AVO (Горчаков) TorrentFilm 2.92 GB
Фильмы 2009 года Аватар / Avatar (Джеймс Кэмерон / James Cameron) [2009, США, Фантастика, боевик, драма, приключения, BDRip] [Расширенная версия / Extended Cut] Dub + Sub TorrentFilm 1.47 GB
Фильмы 2009 года Аватар / Avatar (Джеймс Кэмерон / James Cameron) [2009, США, фантастика, приключения, BDRip] [Extended Cut / Расширенная версия] Dub + Sub (Rus) reversefile 2.18 GB
Зарубежные Аватар 3Д / Avatar 3D (James Cameron / Джеймс Кэмерон) [2009, Фантастика, Боевик, Драма, Приключения, BDrip-AVC] Half OverUnder / Вертикальная анаморфная стереопара, Расширенная версия / Extended... TorrentFilm 18.52 GB
Зарубежные Аватар в 3Д / Avatar 3D (Джеймс Кэмерон / James Cameron) [2009, Фантастика, боевик, драма, приключения, BDremux, 1080p] BD3D TorrentFilm 38.61 GB
Зарубежные Аватар в 3Д / Avatar 3D (Джеймс Кэмерон / James Cameron) [2009, Фантастика, боевик, драма, приключения, BDremux, 1080p] BD3D [Re-Encode]Расширенная версия / Extended Edition TorrentFilm 48.4 GB
Зарубежные мультсериалы Аватар: Легенда о Корре / The Legend of Korra (1-3 сезон полные: 39 серий) (Книга 1-3) (Michael Dante DiMartino / Майкл Данте ДиМартино) [2012-2014 г., мультсериал, приключения, фэнтези, WEB-DLRip]... sergej644 11.16 GB
Показать сообщения:    

Текущее время: Сегодня 18:15

Часовой пояс: GMT



Вы не можете начинать темы
Вы не можете отвечать на сообщения
Вы не можете редактировать свои сообщения
Вы не можете удалять свои сообщения
Вы не можете голосовать в опросах
Вы не можете прикреплять файлы к сообщениям
Вы не можете скачивать файлы