Аватар / Avatar (Джеймс Кэмерон / James Cameron) [2009, США, Фантастика, боевик, драма, приключения, BDRip] [Расширенная версия / Extended Cut] Dub + Sub

 
Автор Сообщение

TorrentFilm ®

Пол:

Стаж: 2 года

Сообщений: 7741



Награды: Нет

Торрент-статистика

Создавать темы 07-Янв-2015 00:00

[Цитировать]

Аватар / Avatar
«Это новый мир»
- Год выпуска: 2009
Выпущено: США, Великобритания / 20th Century Fox Film Corporation
Жанр: фантастика, боевик, драма, приключения
Продолжительность: 02:58:09
Перевод: Профессиональный (полное дублирование)
Cубтитры: Русские (форсированные) (внешние .srt*)-Режиссер:
Джеймс Кэмерон / James Cameron-В ролях:
Сэм Уортингтон (Jake Sully), Зои Салдана (Neytiri), Сигурни Уивер (Grace), Стивен Лэнг (Colonel Miles Quaritch), Мишель Родригес (Trudy Chacon), Джованни Рибизи (Parker Selfridge), Джоэль Мур (Norm Spellman), Си Си Эйч Паундер (Moat), Уэс Стьюди (Eytukan), Лас Алонсо (Tsu'tey)-Описание:
Джейк Салли — бывший морской пехотинец, прикованный к инвалидному креслу. Несмотря на немощное тело, Джейк в душе по-прежнему остается воином. Он получает задание совершить путешествие в несколько световых лет к базе землян на планете Пандора, где корпорации добывают редкий минерал, имеющий огромное значение для выхода Земли из энергетического кризиса.-Релиз групп | | IMDB | КиноПоиск | Сэмпл |-Качество: BDRip [BDRemux]
Формат: AVI
Видео: 656x368 (1.78:1), 23.976 fps, XviD build 73 ~1042 kbps avg, 0.18 bit/pixel
Аудио: 48 kHz, MPEG Layer 3, 2 ch, ~128.00 kbps avg
-

Скриншоты

MediaInfo

General
Complete name                            : D:\Avatar_2009_BDRip_[Extended_Cut]_by_Dalemake.avi
Format                                   : AVI
Format/Info                              : Audio Video Interleave
File size                                : 1.47 GiB
Duration                                 : 2h 58mn
Overall bit rate                         : 1 180 Kbps
Writing application                      : VirtualDubMod 1.5.10.3 | www.virtualdub-fr.org || (build 2550/release)
Writing library                          : VirtualDubMod build 2550/release
Video
ID                                       : 0
Format                                   : MPEG-4 Visual
Format profile                           : Advanced Simple@L5
Format settings, BVOP                    : 1
Format settings, QPel                    : No
Format settings, GMC                     : No warppoints
Format settings, Matrix                  : Custom
Codec ID                                 : XVID
Codec ID/Hint                            : XviD
Duration                                 : 2h 58mn
Bit rate                                 : 1 043 Kbps
Width                                    : 656 pixels
Height                                   : 368 pixels
Display aspect ratio                     : 16:9
Frame rate                               : 23.976 fps
Color space                              : YUV
Chroma subsampling                       : 4:2:0
Bit depth                                : 8 bits
Scan type                                : Progressive
Compression mode                         : Lossy
Bits/(Pixel*Frame)                       : 0.180
Stream size                              : 1.30 GiB (88%)
Writing library                          : XviD 73
Audio
ID                                       : 1
Format                                   : MPEG Audio
Format version                           : Version 1
Format profile                           : Layer 3
Codec ID                                 : 55
Codec ID/Hint                            : MP3
Duration                                 : 2h 58mn
Bit rate mode                            : Constant
Bit rate                                 : 128 Kbps
Channel(s)                               : 2 channels
Sampling rate                            : 48.0 KHz
Compression mode                         : Lossy
Stream size                              : 163 MiB (11%)
Alignment                                : Aligned on interleaves
Interleave, duration                     : 42 ms (1.00 video frame)
Interleave, preload duration             : 504 ms
Writing library                          : LAME3.99r
Encoding settings                        : -m s -V 4 -q 2 -lowpass 17 -b 128

Сравнение

http://torrentfilm.net/forum/viewtopic.php?t=3273090 - недокроп по бокам
http://screenshotcomparison.com/comparison/107613
+ более обширные субтитры с пояснениями
-
[Профиль] [ЛС]

Создавать темы 06-Авг-2015 22:50 (спустя 6 месяцев 30 дней)

Топик был перенесен из форума Фильмы до 2014 года в форум Фильмы до 2012 года
sergej644
 

Создавать темы 12-Июн-2016 08:48 (спустя 1 год 5 месяцев)

Топик был перенесен из форума Фильмы 2011 года в форум Фильмы 2009 года
Russian Mafia
 
Кто просматривает тему:

Форум Тема Автор Размер
Фильмы (HD Rips | 720p, 1080p) Аватар / Avatar (2009) BDRip 1080p от R.G. HD-Films | 60 fps | D sergej644 23.26 GB
Фильмы 2009 года Аватар / Avatar (Джеймс Кэмерон / James Cameron) [2009, США, Великобритания, фантастика, боевик, драма, приключения, BDRip] [Театральная версия] AVO (Горчаков) TorrentFilm 2.92 GB
Фильмы 2009 года Аватар / Avatar (Джеймс Кэмерон / James Cameron) [2009, США, фантастика, приключения, BDRip] [Extended Cut / Расширенная версия] Dub + Sub (Rus) reversefile 2.18 GB
Фильмы (HD DVD, Blu-ray и BDRemux) Аватар / Avatar (Джеймс Кэмерон)[2009, фантастика, боевик, драма,DVD9] | Расширенное коллекционное издание sergej644 21.67 GB
Зарубежные Аватар 3Д / Avatar 3D (James Cameron / Джеймс Кэмерон) [2009, Фантастика, Боевик, Драма, Приключения, BDrip-AVC] Half OverUnder / Вертикальная анаморфная стереопара, Расширенная версия / Extended... TorrentFilm 18.52 GB
Зарубежные Аватар в 3Д / Avatar 3D (Джеймс Кэмерон / James Cameron) [2009, Фантастика, боевик, драма, приключения, BDremux, 1080p] BD3D TorrentFilm 38.61 GB
Зарубежные Аватар в 3Д / Avatar 3D (Джеймс Кэмерон / James Cameron) [2009, Фантастика, боевик, драма, приключения, BDremux, 1080p] BD3D [Re-Encode]Расширенная версия / Extended Edition TorrentFilm 48.4 GB
Зарубежные мультсериалы Аватар: Легенда о Корре / The Legend of Korra (1-3 сезон полные: 39 серий) (Книга 1-3) (Michael Dante DiMartino / Майкл Данте ДиМартино) [2012-2014 г., мультсериал, приключения, фэнтези, WEB-DLRip]... sergej644 11.16 GB
Показать сообщения:    

Текущее время: Сегодня 14:45

Часовой пояс: GMT



Вы не можете начинать темы
Вы не можете отвечать на сообщения
Вы не можете редактировать свои сообщения
Вы не можете удалять свои сообщения
Вы не можете голосовать в опросах
Вы не можете прикреплять файлы к сообщениям
Вы не можете скачивать файлы