Аватар / Avatar (Джеймс Кэмерон / James Cameron) [2009, США, фантастика, приключения, BDRip] [Extended Cut / Расширенная версия] Dub + Sub (Rus)

 
Автор Сообщение

reversefile ®

Пол:

Стаж: 4 года 5 месяцев

Сообщений: 842

Откуда: ReverseFile.org



Награды: Нет

Торрент-статистика

Создавать темы 13-Авг-2014 10:02

[Цитировать]

Аватар / Avatar
«Это новый мир»
- Страна: США
Жанр: фантастика, приключения
Год выпуска: 2009
Продолжительность: 02:58:09
Перевод: Профессиональный (дублированный)
Cубтитры: RUS | srt* | на речь Na'Vi
Оригинальная аудиодорожка: нет-Режиссер:
Джеймс Кэмерон / James Cameron-В ролях:
Сэм Уортингтон (Jake Sully), Зои Салдана (Neytiri), Сигурни Уивер (Grace), Стивен Лэнг (Colonel Miles Quaritch), Джоэль Мур (Norm Spellman), Джованни Рибизи (Parker Selfridge), Мишель Родригес (Trudy Chacon), Лас Алонсо (Tsu'tey), Уэс Студи (Eytukan), Си Си Эйч Паундер (Moat).-Описание:
Джейк Салли — бывший морской пехотинец, прикованный к инвалидному креслу. Несмотря на немощное тело, Джейк в душе по-прежнему остается воином. Он получает задание совершить путешествие в несколько световых лет к базе землян на планете Пандора, где корпорации добывают редкий минерал, имеющий огромное значение для выхода Земли из энергетического кризиса.-
MPAA: - Зрителям, достигшим 12 лет | Детям до 13 лет просмотр не желателен-Качество видео: BDRip
Формат видео: AVI | → //SAMPLE//
Видео: 704x400 (1.76:1), 23.976 fps, XviD build 73 ~1552 kbps avg, 0.23 bit/pixel
Аудио: 48.0 kHz, AC3 Dolby Digital, 2/0 (L,R) ch, ~192.00 kbps avg | DUB
Размер: 2231.10 Mb (1/2 DVD-R)
-

MediaInfo

Общее
Полное имя : A:\Фильмы\АВАТАР\Avatar.2009.Extended.BDRip.XviD.2.18Gb.AC3.avi
Формат : AVI
Формат/Информация : Audio Video Interleave
Профиль формата : OpenDML
Размер файла : 2,18 Гбайт
Продолжительность : 2 ч. 58 м.
Общий поток : 1751 Кбит/сек
Программа кодирования : VirtualDubMod 1.5.10.3 | www.virtualdub-fr.org || (build 2550/release)
Библиотека кодирования : VirtualDubMod build 2550/release
Видео
Идентификатор : 0
Формат : MPEG-4 Visual
Профиль формата : Advanced Simple@L5
Параметр BVOP формата : 1
Параметр QPel формата : Нет
Параметр GMC формата : Без точки перехода
Параметр матрицы формата : Выборочная
Идентификатор кодека : XVID
Идентификатор кодека/Подсказка : XviD
Продолжительность : 2 ч. 58 м.
Битрейт : 1547 Кбит/сек
Ширина : 704 пикселя
Высота : 400 пикселей
Соотношение сторон : 1.76:1
Частота кадров : 23,976 кадра/сек
Цветовое пространство : YUV
Субдискретизация насыщенности : 4:2:0
Битовая глубина : 8 бит
Тип развёртки : Прогрессивная
Метод сжатия : С потерями
Бит/(Пиксели*Кадры) : 0.229
Размер потока : 1,92 Гбайт (88%)
Библиотека кодирования : XviD 65
Аудио
Идентификатор : 1
Формат : AC-3
Формат/Информация : Audio Coding 3
Расширение режима : CM (complete main)
Параметр Endianness формата : Big
Идентификатор кодека : 2000
Продолжительность : 2 ч. 58 м.
Вид битрейта : Постоянный
Битрейт : 192 Кбит/сек
Каналы : 2 канала
Расположение каналов : Front: L R
Частота : 48,0 КГц
Битовая глубина : 16 бит
Метод сжатия : С потерями
Размер потока : 245 Мбайт (11%)
Выравнивание : Разделение по промежуткам
Продолжительность промежутка : 42 мс. (1,00 видеокадр)
Время предзагрузки промежутка : 500 мс.

Скриншот c названием фильма

Скриншоты

[Профиль] [ЛС]

Создавать темы 06-Авг-2015 23:19 (спустя 11 месяцев 24 дня)

Топик был перенесен из форума Фильмы до 2014 года в форум Фильмы до 2012 года
sergej644
 

Создавать темы 12-Июн-2016 08:13 (спустя 1 год 9 месяцев)

Топик был перенесен из форума Фильмы 2011 года в форум Фильмы 2009 года
Russian Mafia
 
Кто просматривает тему:

Форум Тема Автор Размер
Фильмы (HD Rips | 720p, 1080p) Аватар / Avatar (2009) BDRip 1080p от R.G. HD-Films | 60 fps | D sergej644 23.26 GB
Фильмы 2009 года Аватар / Avatar (Джеймс Кэмерон / James Cameron) [2009, США, Великобритания, фантастика, боевик, драма, приключения, BDRip] [Театральная версия] AVO (Горчаков) TorrentFilm 2.92 GB
Фильмы 2009 года Аватар / Avatar (Джеймс Кэмерон / James Cameron) [2009, США, Фантастика, боевик, драма, приключения, BDRip] [Расширенная версия / Extended Cut] Dub + Sub TorrentFilm 1.47 GB
Фильмы (HD DVD, Blu-ray и BDRemux) Аватар / Avatar (Джеймс Кэмерон)[2009, фантастика, боевик, драма,DVD9] | Расширенное коллекционное издание sergej644 21.67 GB
Зарубежные Аватар 3Д / Avatar 3D (James Cameron / Джеймс Кэмерон) [2009, Фантастика, Боевик, Драма, Приключения, BDrip-AVC] Half OverUnder / Вертикальная анаморфная стереопара, Расширенная версия / Extended... TorrentFilm 18.52 GB
Зарубежные Аватар в 3Д / Avatar 3D (Джеймс Кэмерон / James Cameron) [2009, Фантастика, боевик, драма, приключения, BDremux, 1080p] BD3D TorrentFilm 38.61 GB
Зарубежные Аватар в 3Д / Avatar 3D (Джеймс Кэмерон / James Cameron) [2009, Фантастика, боевик, драма, приключения, BDremux, 1080p] BD3D [Re-Encode]Расширенная версия / Extended Edition TorrentFilm 48.4 GB
Зарубежные мультсериалы Аватар: Легенда о Корре / The Legend of Korra (1-3 сезон полные: 39 серий) (Книга 1-3) (Michael Dante DiMartino / Майкл Данте ДиМартино) [2012-2014 г., мультсериал, приключения, фэнтези, WEB-DLRip]... sergej644 11.16 GB
Показать сообщения:    

Текущее время: Сегодня 22:40

Часовой пояс: GMT



Вы не можете начинать темы
Вы не можете отвечать на сообщения
Вы не можете редактировать свои сообщения
Вы не можете удалять свои сообщения
Вы не можете голосовать в опросах
Вы не можете прикреплять файлы к сообщениям
Вы не можете скачивать файлы