АББА. ДАБА ДУ / ABBA. DABBA DOOO (1976) SATRip [576i]

 
Автор Сообщение

sergej644 ®

Пол:

Стаж: 4 года 11 месяцев

Сообщений: 6035

Откуда: Soviet Union



Награды: Нет

Торрент-статистика

Создавать темы 07-Янв-2015 09:44

[Цитировать]

-АББА. ДАБА ДУ / ABBA. DABBA DOOO (1976) SATRip [576i]- Режиссер / Телекомпания: Leonard Eek / Австралия канал 9
Жанр: Документальный
Описание:
Музыкально-документальный фильм об истории создания легендарной и супер-популярной поп-группы "АББА" снят в Швеции в 1976 году и транслировался в Австралии, Нидерландах, Финляндии и Швеции. В фильме содержатся интервью с музыкантами, фрагменты композиций, принесших известность группы, исторические справки о каждом из участников - все это послужило основой картины.
Примечание: Это первый реальный документальный фильм о группе ABBA была снят в Швеции в 1976 году. Он содержит короткие интервью со всеми четырьмя членами группы как вместе, так и по отдельности. Клипы сделанные специально для этой программы, а также мини- концерт в начальной части.
Треклист:
01. Knowing Me, Knowing You
02. When I Kissed The Teacher
03. Dum Dum Diddle
04. My Love My Life
05. Money Money Money
06. Dancing Queen
07. Tiger
08. Why Did It Have To Be Me?
Участники: Agnetha Fältskog, Anni-Frid Lyngstad, Björn Ulvaeus
Продолжительность: 00:56:20
Качество видео: SATRip [576i]
Перевод: Двухголосый закадровый, профессиональный
Видеокодек: MPEG-2
Битрейт видео: ~2232 kb/s
Размер кадра: 704х576 [576i]
Аудиокодек: MP2
Битрейт аудио: 128 kb/s VBR

Mediainfo:

Общее
Идентификатор                            : 16 (0x10)
Полное имя                               : ABBA. DABBA DOOO.ts
Формат                                   : MPEG-TS
Размер файла                             : 1001 Мбайт
Продолжительность                        : 56 м.
Режим общего битрейта                    : Переменный
Общий поток                              : 2484 Кбит/сек
Видео
Идентификатор                            : 1103 (0x44F)
Идентификатор меню                       : 103 (0x67)
Формат                                   : MPEG Video
Версия формата                           : Version 2
Профиль формата                          : Main@Main
Параметр BVOP формата                    : Да
Параметр матрицы формата                 : Выборочная
Параметр GOP формата                     : Variable
Идентификатор кодека                     : 2
Продолжительность                        : 56 м.
Вид битрейта                             : Переменный
Битрейт                                  : 2232 Кбит/сек
Максимальный битрейт                     : 15,0 Мбит/сек
Ширина                                   : 704 пикселя
Высота                                   : 576 пикселей
Соотношение сторон                       : 4:3
Частота кадров                           : 25,000 кадров/сек
Стандарт вещания                         : PAL
Цветовое пространство                    : YUV
Субдискретизация насыщенности            : 4:2:0
Битовая глубина                          : 8 бит
Тип развёртки                            : Чересстрочная
Порядок развёртки                        : Верхнее поле первое
Метод сжатия                             : С потерями
Бит/(Пиксели*Кадры)                      : 0.220
Размер потока                            : 900 Мбайт (90%)
Аудио
Идентификатор                            : 2103 (0x837)
Идентификатор меню                       : 103 (0x67)
Формат                                   : MPEG Audio
Версия формата                           : Version 1
Профиль формата                          : Layer 2
Идентификатор кодека                     : 4
Продолжительность                        : 56 м.
Вид битрейта                             : Постоянный
Битрейт                                  : 128 Кбит/сек
Каналы                                   : 2 канала
Частота                                  : 48,0 КГц
Метод сжатия                             : С потерями
Задержка видео                           : 116 мс.
Размер потока                            : 51,6 Мбайт (5%)
Язык                                     : std
Язык, дополнительно                      : Clean effects
Скриншоты:
Время раздачи: Пн-Пт с 18:00 до 22:00
[Профиль] [ЛС]
Кто просматривает тему:

Показать сообщения:    

Текущее время: Сегодня 22:36

Часовой пояс: GMT



Вы не можете начинать темы
Вы не можете отвечать на сообщения
Вы не можете редактировать свои сообщения
Вы не можете удалять свои сообщения
Вы не можете голосовать в опросах
Вы не можете прикреплять файлы к сообщениям
Вы не можете скачивать файлы