Аббатство Даунтон / Downton Abbey [05x01-07 из 08] (2014) WEB-DL 720p | BaibaKo

 
Автор Сообщение

Белочка ®

Пол:

Стаж: 5 лет 1 месяц

Сообщений: 2089



Награды: 1 (Подробнее)

Girls (Количество: 1)
Торрент-статистика

Создавать темы 01-Дек-2014 20:43

[Цитировать]

Информация о фильме
Название: Аббатство Даунтон
Оригинальное название: Downton Abbey
Год выхода: 2014
Жанр: драма, исторический
Режиссер: Брайан Персивал, Энди Годдар, Брайан Келли и др.
В ролях: Мишель Докери, Дэн Стивенс, Хью Бонневилль, Элизабет МакГоверн, Мэгги Смит, Брендан Койл, Джоанн Фроггатт, Лаура Кармайкл, Джессика Браун-Финдли, Роб Джеймс-Колльер
О фильме:
5 сезон продолжит рассказ об отрезках жизни семьи Кроули, а также их слуг. История по-прежнему будет полна страстей, интриг и сплетен. Действие начинается в 1924 году, когда в Англии впервые выбирают лейбористское правительство. Начинается противостояние "верхов и низов", верхи считают, что новая власть хочет дискриминировать их класс. Зрителей снова ждет возобновление войны между сестрами Эдит и Мэри, но уже на новом витке истории. Анна и Джон Бейтц пытаются справиться с настигшей их трагедией, кое-кто думает, что Джон причастен к смерти камердинера. Зрителей ждут и любовные истории, включая леди Мэри и Эдит, Изобель Кроули и Тома.

MI

Общее
Уникальный идентификатор : 198299751560217794532389648627115319454 (0x952F24985596292181A57C51B77D609E)
Формат : Matroska
Версия формата : Version 2
Размер файла : 2,28 Гбайт
Продолжительность : 1 ч. 9 м.
Общий поток : 4680 Кбит/сек
Дата кодирования : UTC 2014-11-24 01:26:48
Программа кодирования : mkvmerge v7.2.0 ('On Every Street') 64bit built on Sep 13 2014 15:52:10
Библиотека кодирования : libebml v1.3.0 + libmatroska v1.4.1
DURATION : 01:09:30.254000000
NUMBER_OF_FRAMES : 1042
NUMBER_OF_BYTES : 47779
_STATISTICS_WRITING_APP : mkvmerge v7.2.0 ('On Every Street') 64bit built on Sep 13 2014 15:52:10
_STATISTICS_WRITING_DATE_UTC : 2014-11-24 01:26:48
_STATISTICS_TAGS : BPS DURATION NUMBER_OF_FRAMES NUMBER_OF_BYTES
Видео
Идентификатор : 1
Формат : AVC
Формат/Информация : Advanced Video Codec
Профиль формата : High@L3.1
Параметр CABAC формата : Нет
Параметр ReFrames формата : 2 кадра
Идентификатор кодека : V_MPEG4/ISO/AVC
Продолжительность : 1 ч. 9 м.
Битрейт : 4011 Кбит/сек
Ширина : 1280 пикселей
Высота : 716 пикселей
Соотношение сторон : 16:9
Режим частоты кадров : Постоянный
Частота кадров : 23,976 кадра/сек
Цветовое пространство : YUV
Субдискретизация насыщенности : 4:2:0
Битовая глубина : 8 бит
Тип развёртки : Прогрессивная
Бит/(Пиксели*Кадры) : 0.183
Размер потока : 1,96 Гбайт (86%)
Язык : English
Default : Да
Forced : Нет
Основные цвета : BT.709
Характеристики трансфера : BT.709
Коэффициенты матрицы : BT.709
Аудио #1
Идентификатор : 2
Формат : AC-3
Формат/Информация : Audio Coding 3
Расширение режима : CM (complete main)
Параметр Endianness формата : Big
Идентификатор кодека : A_AC3
Продолжительность : 1 ч. 9 м.
Вид битрейта : Постоянный
Битрейт : 384 Кбит/сек
Каналы : 2 канала
Расположение каналов : Front: L R
Частота : 48,0 КГц
Битовая глубина : 16 бит
Метод сжатия : С потерями
Размер потока : 192 Мбайт (8%)
Язык : Russian
Default : Да
Forced : Нет
Аудио #2
Идентификатор : 3
Формат : AC-3
Формат/Информация : Audio Coding 3
Расширение режима : CM (complete main)
Параметр Endianness формата : Big
Идентификатор кодека : A_AC3
Продолжительность : 1 ч. 9 м.
Вид битрейта : Постоянный
Битрейт : 192 Кбит/сек
Каналы : 2 канала
Расположение каналов : Front: L R
Частота : 48,0 КГц
Битовая глубина : 16 бит
Метод сжатия : С потерями
Размер потока : 96,0 Мбайт (4%)
Язык : English
Default : Нет
Forced : Нет
Текст #1
Идентификатор : 4
Формат : UTF-8
Идентификатор кодека : S_TEXT/UTF8
Идентификатор кодека/Информация : UTF-8 Plain Text
Язык : Russian
Default : Нет
Forced : Нет
Текст #2
Идентификатор : 5
Формат : UTF-8
Идентификатор кодека : S_TEXT/UTF8
Идентификатор кодека/Информация : UTF-8 Plain Text
Язык : English
Default : Нет
Forced : Нет

Награды

Золотой глобус, 2012 год
Победитель (1):
Лучший мини-сериал или фильм на ТВ
Номинации (3):
Лучший актёр мини-сериала или фильма на ТВ (Хью Бонневилль)
Лучшая актриса мини-сериала или фильма на ТВ (Элизабет МакГоверн)
Лучшая актриса второго плана мини-сериала или фильма на ТВ (Мэгги Смит)

Дополнительно

Перевод: vipere
Озвучка: Лира Грим, Ольга Мотрич, Елена Григорьева, Владимир Курдов, Алексей Кузнецов
Монтаж: Павел Дежин
Субтитры Нотабеноид от S0phie, синхронизация qqss44
Обложка: tvblog

Страна: Великобритания
Продолжительность: ~ 01:00:00
Перевод: любительский (многоголосый, закадровый) - BaibaKo
Файл
Видео: h.264, 1280x720 (16:9), 23,976 fps, ~4000 kbps, 0.183 bit/pixel
Аудио 1: AC3, 48 kHz, 2 ch, 384 kbps - Rus
Аудио 2: AC3, 48 kHz, 2 ch, 192 kbps - Eng
Субтитры: Русские (нотабеноид), английские

Скриншоты



[Профиль] [ЛС]
Показать сообщения:    

Текущее время: Сегодня 04:18

Часовой пояс: GMT



Вы не можете начинать темы
Вы не можете отвечать на сообщения
Вы не можете редактировать свои сообщения
Вы не можете удалять свои сообщения
Вы не можете голосовать в опросах
Вы не можете прикреплять файлы к сообщениям
Вы не можете скачивать файлы